Blackberry Smoke – Find A Light (2018) [24bit Hi-Res]

Blackberry Smoke – Find a Light 24 bit

Year Of Release: 2018
Genre: Rock
Format: Flac, Tracks 
Bitrate: lossless
Total Size: 640.96 MB


01. Blackberry Smoke - Flesh and Bone (04:32) 02. Blackberry Smoke - Run Away from It All (04:27) 03. Blackberry Smoke - The Crooked Kind (03:36) 04. Blackberry Smoke - Medicate My Mind (04:39) 05. Blackberry Smoke - I've Got This Song (04:51) 06. Blackberry Smoke - Best Seat in the House (04:23) 07. Blackberry Smoke - I'll Keep Ramblin' (05:34) 08. Blackberry Smoke - Seems so Far (03:58) 09. Blackberry Smoke - Lord Strike Me Dead (03:41) 10. Blackberry Smoke - Let Me Down Easy (02:54) 11. Blackberry Smoke - Nobody Gives a Damn (03:20) 12. Blackberry Smoke - Till the Wheels Fall Off (03:45) 13. Blackberry Smoke - Mother Mountain (03:38)
Sample Rate: 24/44.1
  1. Dynamic Range Meter


    foobar2000 1.3.1 / Dynamic Range Meter 1.1.1
    log date: 2018-04-15 16:13:20

    --------------------------------------------------------------------------------
    Analyzed: Blackberry Smoke / Find a Light
    --------------------------------------------------------------------------------

    DR Peak RMS Duration Track
    --------------------------------------------------------------------------------
    DR6 -0.01 dB -7.38 dB 4:32 01-Flesh and Bone
    DR7 -0.01 dB -7.68 dB 4:28 02-Run Away from It All
    DR6 -0.01 dB -7.23 dB 3:37 03-The Crooked Kind
    DR7 -0.01 dB -8.27 dB 4:39 04-Medicate My Mind
    DR7 -0.01 dB -8.63 dB 4:51 05-I've Got This Song
    DR6 -0.01 dB -6.96 dB 4:23 06-Best Seat in the House
    DR7 -0.01 dB -7.93 dB 5:34 07-I'll Keep Ramblin'
    DR7 -0.01 dB -8.45 dB 3:59 08-Seems so Far
    DR7 -0.01 dB -7.93 dB 3:41 09-Lord Strike Me Dead
    DR9 -0.01 dB -10.99 dB 2:54 10-Let Me Down Easy
    DR7 -0.01 dB -7.93 dB 3:21 11-Nobody Gives a Damn
    DR6 -0.01 dB -7.07 dB 3:45 12-Till the Wheels Fall Off
    DR8 -0.01 dB -10.08 dB 3:39 13-Mother Mountain
    --------------------------------------------------------------------------------

    Number of tracks: 13
    Official DR value: DR7

    Samplerate: 44100 Hz
    Channels: 2
    Bits per sample: 24
    Bitrate: 1623 kbps
    Codec: FLAC
    ================================================================================


Related posts

Leave a Reply

Your email address will not be published. Required fields are marked *